[2023] [日本] [动画] [WEB-1080P] 身为悲剧始作俑者的最强邪恶BOSS女王为民竭心尽力[第08集][中文字幕].The.Most.Heretical.Last.Boss.Queen.From.Vi

16ACG 08-28 7 0条评论
摘要: 完整标题:身为悲剧始作俑者的最强邪恶BOSS女王为民竭心尽力[第08集][中文字幕].The.Most.Heretical.La...

[2023] [日本] [动画] [WEB-1080P] 身为悲剧始作俑者的最强邪恶BOSS女王为民竭心尽力[第08集][中文字幕].The.Most.Heretical.Last.Boss.Queen.From.Vi

-->

完整标题:身为悲剧始作俑者的最强邪恶BOSS女王为民竭心尽力[第08集][中文字幕].The.Most.Heretical.Last.Boss.Queen.From.Villainess.to.Savior.2023.S01.1080p.WEB-DL.H264.AAC-Huawei 0.62GB

[2023] [日本] [动画] [WEB-1080P] 身为悲剧始作俑者的最强邪恶BOSS女王为民竭心尽力[第08集][中文字幕].The.Most.Heretical.Last.Boss.Queen.From.Vi

◎标  题 身为悲剧始作俑者的最强邪恶BOSS女王为民竭心尽力
◎译  名 成為悲劇元凶的最強異端,最後頭目女王為了人民犧牲奉獻(台)
◎片  名 悲劇の元凶となる最強外道ラスボス女王は民の為に尽くします 。
◎年  代 2023
◎产  地 日本
◎类  别 动画
◎语  言 日语
◎IMDb评分 6.8/10 (32人评价)
◎IMDb链接 https://www.imdb.com/title/tt23132598/
◎豆瓣评分 6.0/10 (165人评价)
◎豆瓣链接 https://movie.douban.com/subject/36139982/
◎导  演 新田典生 Nitta Norio
◎编  剧 三重野瞳 Hitomi Mieno
◎演  员 菲鲁兹·蓝 Fairouz Ai
      内田真礼 Maaya Uchida
      户松遥 Haruka Tomatsu
      榎木淳弥 Junya Enoki
      井上喜久子 Kikuko Inoue
      森川智之 Toshiyuki Morikawa
      游佐浩二 Koji Yusa
      安元洋贵 Hiroki Yasumoto
      关俊彦 Toshihiko Seki
      小野大辅 Daisuke Ono
      下野纮 Hiro Shimono
      诹访部顺一 Junichi Suwabe
      市道真央 Mao Ichimichi
      石上静香 Shizuka Ishigami

◎简  介
    回过神后发现,我转生成为了游戏中年仅8岁的大公主,未来将继承王位。   身为与玩家对抗的最终BOSS,本将会给身边人带来不幸,走向灭亡……   ……是说,我根本早早去死比较好吧?   但是,既然可以改变故事线,那我要充分运用“可以预知未来”的天赋,防止悲剧,拯救大家!   这是反派最后头目女王在不知不觉间深受众人爱戴的故事。

##### MediaInfo ######
General
Unique ID : 292515822203186566983433640323378657099 (0xDC107F84B6FC65D9150E6F600401374B)
Complete name : The.Most.Heretical.Last.Boss.Queen.From.Villainess.to.Savior.2023.S01E08.1080p.WEB-DL.H264.AAC-Huawei.mkv
Format : Matroska
Format version : Version 4
File size : 630 MiB
Duration : 23 min 40 s
Overall bit rate : 3 724 kb/s
Encoded date : UTC 2023-08-25 16:48:38
Writing application : mkvmerge v63.0.0 ('Everything') 32-bit
Writing library : libebml v1.4.2 + libmatroska v1.6.4

Video
ID : 1
Format : AVC
Format/Info : Advanced Video Codec
Format profile : [email protected]
Format settings : CABAC / 1 Ref Frames
Format settings, CABAC : Yes
Format settings, Reference frames : 1 frame
Format settings, GOP : M=1, N=60
Codec ID : V_MPEG4/ISO/AVC
Duration : 23 min 40 s
Bit rate mode : Constant
Bit rate : 3 596 kb/s
Nominal bit rate : 4 000 kb/s
Width : 1 920 pixels
Height : 1 080 pixels
Display aspect ratio : 16:9
Frame rate mode : Constant
Frame rate : 29.970 (30000/1001) FPS
Color space : YUV
Chroma subsampling : 4:2:0
Bit depth : 8 bits
Scan type : Progressive
Bits/(Pixel*Frame) : 0.058
Stream size : 609 MiB (97%)
Default : Yes
Forced : No

Audio
ID : 2
Format : AAC LC
Format/Info : Advanced Audio Codec Low Complexity
Codec ID : A_AAC-2
Duration : 23 min 38 s
Bit rate : 125 kb/s
Channel(s) : 2 channels
Channel layout : L R
Sampling rate : 48.0 kHz
Frame rate : 46.875 FPS (1024 SPF)
Compression mode : Lossy
Stream size : 21.2 MiB (3%)
Language : Japanese
Default : Yes
Forced : No

部分资源为软字幕,移动端推荐播放器:MxPlayer,nPlayer,infuse ,其他播放器请自行尝试。

部分资源为软字幕,电脑端推荐播放器:PotPlayer,完美解码,KMPLAYER,其他播放器请自行尝试。


文章版权及转载声明:

作者:16ACG本文地址:https://16acg.com/info/6028.html发布于 08-28
文章转载或复制请以超链接形式并注明出处16次元导航

赞(0

觉得文章有用就打赏一下文章作者

支付宝扫一扫打赏

微信扫一扫打赏