[2023] [大陆] [动画] [WEB-4K] 真阳武神[第09集][国语配音/中文字幕].Soul.of.Light.S01.2023.2160p.WEB-DL.H265.AAC-SeeWEB 0.85GB

16ACG 08-31 5 0条评论
摘要: 完整标题:真阳武神[第09集][国语配音/中文字幕].Soul.of.Light.S01.2023.2160p.WEB-DL.H...

[2023] [大陆] [动画] [WEB-4K] 真阳武神[第09集][国语配音/中文字幕].Soul.of.Light.S01.2023.2160p.WEB-DL.H265.AAC-SeeWEB 0.85GB

-->

完整标题:真阳武神[第09集][国语配音/中文字幕].Soul.of.Light.S01.2023.2160p.WEB-DL.H265.AAC-SeeWEB 0.85GB

[2023] [大陆] [动画] [WEB-4K] 真阳武神[第09集][国语配音/中文字幕].Soul.of.Light.S01.2023.2160p.WEB-DL.H265.AAC-SeeWEB 0.85GB

◎标  题 真阳武神
◎译  名 阳神 / Soul of Light
◎年  代 2023
◎产  地 中国大陆
◎类  别 动画 / 奇幻
◎语  言 汉语普通话
◎IMDb链接 https://www.imdb.com/title//
◎豆瓣链接 https://movie.douban.com/subject/35623353/
◎编  剧 梦入神机 Zhong Wang
      王裕仁 Yuren Wang
      高阳 Yang Gao
◎演  员 边江 Jiang Bian
      白雪岑 Xuecen Bai
      赵铭洲 Mingzhou Zhao
      张思王之 Zhangsiwangzhi
      于鸣鹿 Minglu Yu
      郭浩然 Haoran Guo
      栾立胜 Lisheng Luan
      孟子焱
      刘思岑 Sicen Liu
      李靖 Jing Li
      张惠霖 Huilin Zhang
      万舒心
      敖磊 Lei Ao
      苗壮 Zhuang Miao
      蔡娜 Na Cai
      张雨濛 Yumeng Zhang
      云惟一 Weiyi Yun
      贺文潇 Wenxiao He
      卢力峰 Lifeng Lu
      史泽鲲 Zekun Shi

◎简  介
    有人说,世间是一个大苦海,人在海中,肉身是船,魂是船里的人,驶向彼岸。   春秋鼎盛的大乾王朝国运昌盛、四海宾服,然而强盛的表面之下暗流已然涌动,远敌近邻虎视眈眈,八大妖仙蠢蠢欲动,武温侯洪玄机权倾朝野,太上道主梦神机监察天下。   在这样一个大争之世里,少年书生洪易向着世道,发出了第一声质问。洪易是当朝第一权臣洪玄机与太上道上代圣女梦冰云之子。幼年丧母,身为庶子,处处受人欺压,但是这不能阻挡洪易求学之心。机缘巧合之下,洪易踏上无比艰险的武道双修之路,在命运的压迫下奋起反抗,挫败了重重强敌,成为一代传奇。

##### MediaInfo ######
General
Complete name : 真阳武神.Soul.of.Light.S01E09.2023.2160p.WEB-DL.H265.AAC-SeeWEB.mp4
Format : MPEG-4
Format profile : Base Media
Codec ID : isom (isom/iso2/mp41)
File size : 868 MiB
Duration : 19 min 52 s
Overall bit rate : 6 105 kb/s
Writing application : OurTV Multimedia Platform

Video
ID : 1
Format : HEVC
Format/Info : High Efficiency Video Coding
Format profile : Main@L5@Main
Codec ID : hev1
Codec ID/Info : High Efficiency Video Coding
Duration : 19 min 52 s
Bit rate : 5 906 kb/s
Width : 3 840 pixels
Height : 2 160 pixels
Display aspect ratio : 16:9
Frame rate mode : Constant
Frame rate : 25.000 FPS
Color space : YUV
Chroma subsampling : 4:2:0
Bit depth : 8 bits
Bits/(Pixel*Frame) : 0.028
Stream size : 840 MiB (97%)
Color range : Limited
Color primaries : BT.709
Transfer characteristics : BT.709
Matrix coefficients : BT.709
Codec configuration box : hvcC

Audio
ID : 2
Format : AAC LC
Format/Info : Advanced Audio Codec Low Complexity
Codec ID : mp4a-40-2
Duration : 19 min 52 s
Bit rate mode : Constant
Bit rate : 192 kb/s
Channel(s) : 2 channels
Channel layout : L R
Sampling rate : 44.1 kHz
Frame rate : 43.066 FPS (1024 SPF)
Compression mode : Lossy
Stream size : 27.3 MiB (3%)
Default : Yes
Alternate group : 1

部分资源为软字幕,移动端推荐播放器:MxPlayer,nPlayer,infuse ,其他播放器请自行尝试。

部分资源为软字幕,电脑端推荐播放器:PotPlayer,完美解码,KMPLAYER,其他播放器请自行尝试。


文章版权及转载声明:

作者:16ACG本文地址:https://16acg.com/info/6187.html发布于 08-31
文章转载或复制请以超链接形式并注明出处16次元导航

赞(0

觉得文章有用就打赏一下文章作者

支付宝扫一扫打赏

微信扫一扫打赏