[2023] [日本] [动作] [WEB-1080P] 范马刃牙 第二季[全27集][简繁英字幕].Baki.Hanma.S02.2023.1080p.NF.WEB-DL.H264.DDP5.1-SeeWEB 28.

16ACG 2023-08-28 23 0条评论
摘要: 完整标题:范马刃牙 第二季[全27集][简繁英字幕].Baki.Hanma.S02.2023.1080p.NF.WEB-DL.H...

[2023] [日本] [动作] [WEB-1080P] 范马刃牙 第二季[全27集][简繁英字幕].Baki.Hanma.S02.2023.1080p.NF.WEB-DL.H264.DDP5.1-SeeWEB 28.

-->

完整标题:范马刃牙 第二季[全27集][简繁英字幕].Baki.Hanma.S02.2023.1080p.NF.WEB-DL.H264.DDP5.1-SeeWEB 28.88GB

[2023] [日本] [动作] [WEB-1080P] 范马刃牙 第二季[全27集][简繁英字幕].Baki.Hanma.S02.2023.1080p.NF.WEB-DL.H264.DDP5.1-SeeWEB 28.

◎标  题 范马刃牙 第二季
◎译  名 Baki Hanma / The Tale of Pickle & The Pickle War Saga / The Father VS Son Saga
◎片  名 範馬刃牙 2期
◎年  代 2023
◎产  地 日本
◎类  别 动作 / 动画
◎语  言 日语
◎IMDb链接 https://www.imdb.com/title//
◎豆瓣评分 7.5/10 (689人评价)
◎豆瓣链接 https://movie.douban.com/subject/35814236/
◎导  演 平野俊贵 Toshihiro Hirano
◎编  剧 浦畑达彦 Tatsuhiko Urahata
◎演  员 岛崎信长 Nobunaga Shimazaki
      大塚明夫 Akio Ôtsuka
      草尾毅 Takeshi Kusao
      飞田展男 Nobuo Tobita
      麦人 Mugihito
      土师孝也 Takaya Hashi
      潘惠美 Megumi Han
      小山力也 Rikiya Koyama
      菅生隆之 Takayuki Sugo
      川原庆久 Yoshihisa Kawahara
      岛田敏 Bin Shimada
      山崎巧 Takumi Yamazaki
      青山穰 Yutaka Aoyama
      村濑步 Ayumu Murase
      江口拓也 Takuya Eguchi
      三宅健太 Kenta Miyake
      绪方贤一 Kenichi Ogata
      古谷彻 Tôru Furuya

◎简  介
    故事开始之初,自恐龙时代就一直沉睡在地球深处的穴居人皮克尔在现代突然复活。皮克尔徒手杀死了比自己大很多倍的恐龙,并以之为食,现在成为了一名拥有超凡战斗能力的战士。刃牙能否战胜皮克尔,并与他的父亲范马勇次郎进行最终决战?

##### MediaInfo ######
General
Unique ID : 208988444130716990917572271888174945204 (0x9D39B5D37BA6AE8F988D1464B59013B4)
Complete name : 范马刃牙.Baki.Hanma.S02E01.2023.1080p.NF.WEB-DL.H264.DDP5.1-SeeWEB.mkv
Format : Matroska
Format version : Version 4
File size : 1.07 GiB
Duration : 25 min 32 s
Overall bit rate mode : Variable
Overall bit rate : 5 987 kb/s
Movie name : 新說人類史
Description : 史崔登上校去找刃牙,告訴他幾個驚人的消息。科學團隊發現一個侏羅紀的岩鹽內竟有保存完整的人類。
Encoded date : UTC 2023-08-26 01:16:07
Writing application : mkvmerge v64.0.0 ('Willows') 64-bit
Writing library : libebml v1.4.2 + libmatroska v1.6.4 / Lavf60.3.100
DATE : 2023
EPISODE_ID : 1
SEASON_NUMBER : 2
SHOW : 範馬刃牙

Video
ID : 1
Format : AVC
Format/Info : Advanced Video Codec
Format profile : Main@L4
Format settings : CABAC / 3 Ref Frames
Format settings, CABAC : Yes
Format settings, Reference frames : 3 frames
Codec ID : V_MPEG4/ISO/AVC
Duration : 25 min 32 s
Bit rate mode : Variable
Bit rate : 4 703 kb/s
Nominal bit rate : 5 000 kb/s
Maximum bit rate : 7 500 kb/s
Width : 1 920 pixels
Height : 1 080 pixels
Display aspect ratio : 16:9
Frame rate mode : Constant
Frame rate : 23.976 (24000/1001) FPS
Color space : YUV
Chroma subsampling : 4:2:0
Bit depth : 8 bits
Scan type : Progressive
Bits/(Pixel*Frame) : 0.095
Stream size : 859 MiB (79%)
Writing library : x264 core 148 r2727 7d026e8
Encoding settings : cabac=1 / ref=3 / deblock=1:0:0 / analyse=0x1:0x111 / me=umh / subme=10 / psy=1 / psy_rd=1.00:0.00 / mixed_ref=1 / me_range=24 / chroma_me=1 / trellis=2 / 8x8dct=0 / cqm=0 / deadzone=21,11 / fast_pskip=1 / chroma_qp_offset=-2 / threads=8 / lookahead_threads=1 / sliced_threads=0 / nr=0 / decimate=1 / interlaced=0 / bluray_compat=0 / stitchable=1 / constrained_intra=0 / bframes=2 / b_pyramid=0 / b_adapt=2 / b_bias=0 / direct=3 / weightb=1 / open_gop=0 / weightp=2 / keyint=48 / keyint_min=25 / scenecut=0 / intra_refresh=0 / rc_lookahead=48 / rc=2pass / mbtree=1 / bitrate=5000 / ratetol=1.0 / qcomp=0.50 / qpmin=6 / qpmax=51 / qpstep=4 / cplxblur=20.0 / qblur=0.5 / vbv_maxrate=7500 / vbv_bufsize=10000 / nal_hrd=vbr / filler=0 / ip_ratio=1.40 / aq=1:1.00
Default : Yes
Forced : No
VENDOR_ID : [0][0][0][0]

Audio #1
ID : 2
Format : E-AC-3
Format/Info : Enhanced AC-3
Commercial name : Dolby Digital Plus
Codec ID : A_EAC3
Duration : 25 min 32 s
Bit rate mode : Constant
Bit rate : 640 kb/s
Channel(s) : 6 channels
Channel layout : L R C LFE Ls Rs
Sampling rate : 48.0 kHz
Frame rate : 31.250 FPS (1536 SPF)
Bit depth : 32 bits
Compression mode : Lossy
Stream size : 117 MiB (11%)
Title : 英語
Language : English
Service kind : Complete Main
Default : No
Forced : No
VENDOR_ID : [0][0][0][0]

Audio #2
ID : 3
Format : E-AC-3
Format/Info : Enhanced AC-3
Commercial name : Dolby Digital Plus
Codec ID : A_EAC3
Duration : 25 min 32 s
Bit rate mode : Constant
Bit rate : 640 kb/s
Channel(s) : 6 channels
Channel layout : L R C LFE Ls Rs
Sampling rate : 48.0 kHz
Frame rate : 31.250 FPS (1536 SPF)
Bit depth : 32 bits
Compression mode : Lossy
Stream size : 117 MiB (11%)
Title : 日文 [原始]
Language : Japanese
Service kind : Complete Main
Default : Yes
Forced : No
VENDOR_ID : [0][0][0][0]

Text #1
ID : 4
Format : UTF-8
Codec ID : S_TEXT/UTF8
Codec ID/Info : UTF-8 Plain Text
Duration : 22 min 12 s
Bit rate : 111 b/s
Frame rate : 0.259 FPS
Count of elements : 345
Stream size : 18.1 KiB (0%)
Title : 阿拉伯文
Writing library : Lavc60.3.100 srt
Language : Arabic
Default : No
Forced : No

Text #2
ID : 5
Format : UTF-8
Codec ID : S_TEXT/UTF8
Codec ID/Info : UTF-8 Plain Text
Duration : 20 min 21 s
Bit rate : 83 b/s
Frame rate : 0.255 FPS
Count of elements : 312
Stream size : 12.5 KiB (0%)
Title : 德文
Writing library : Lavc60.3.100 srt
Language : German
Default : No
Forced : No

Text #3
ID : 6
Format : UTF-8
Codec ID : S_TEXT/UTF8
Codec ID/Info : UTF-8 Plain Text
Duration : 22 min 10 s
Bit rate : 127 b/s
Frame rate : 0.261 FPS
Count of elements : 347
Stream size : 20.7 KiB (0%)
Title : 希臘文
Writing library : Lavc60.3.100 srt
Language : Greek
Default : No
Forced : No

Text #4
ID : 7
Format : UTF-8
Codec ID : S_TEXT/UTF8
Codec ID/Info : UTF-8 Plain Text
Duration : 20 min 21 s
Bit rate : 81 b/s
Frame rate : 0.280 FPS
Count of elements : 342
Stream size : 12.1 KiB (0%)
Title : 英語
Writing library : Lavc60.3.100 srt
Language : English
Default : No
Forced : No

Text #5
ID : 8
Format : UTF-8
Codec ID : S_TEXT/UTF8
Codec ID/Info : UTF-8 Plain Text
Duration : 22 min 12 s
Bit rate : 73 b/s
Frame rate : 0.242 FPS
Count of elements : 322
Stream size : 11.9 KiB (0%)
Title : 西班牙語
Writing library : Lavc60.3.100 srt
Language : Spanish
Default : No
Forced : No

Text #6
ID : 9
Format : UTF-8
Codec ID : S_TEXT/UTF8
Codec ID/Info : UTF-8 Plain Text
Duration : 22 min 12 s
Bit rate : 72 b/s
Frame rate : 0.259 FPS
Count of elements : 345
Stream size : 11.7 KiB (0%)
Title : 歐洲西班牙語
Writing library : Lavc60.3.100 srt
Language : Spanish
Default : No
Forced : No

Text #7
ID : 10
Format : UTF-8
Codec ID : S_TEXT/UTF8
Codec ID/Info : UTF-8 Plain Text
Duration : 22 min 12 s
Bit rate : 72 b/s
Frame rate : 0.245 FPS
Count of elements : 327
Stream size : 11.7 KiB (0%)
Title : 菲律賓文
Writing library : Lavc60.3.100 srt
Default : No
Forced : No

Text #8
ID : 11
Format : UTF-8
Codec ID : S_TEXT/UTF8
Codec ID/Info : UTF-8 Plain Text
Duration : 22 min 12 s
Bit rate : 79 b/s
Frame rate : 0.263 FPS
Count of elements : 350
Stream size : 13.0 KiB (0%)
Title : 法文
Writing library : Lavc60.3.100 srt
Language : French
Default : No
Forced : No

Text #9
ID : 12
Format : UTF-8
Codec ID : S_TEXT/UTF8
Codec ID/Info : UTF-8 Plain Text
Duration : 22 min 12 s
Bit rate : 100 b/s
Frame rate : 0.260 FPS
Count of elements : 347
Stream size : 16.4 KiB (0%)
Title : 希伯來文
Writing library : Lavc60.3.100 srt
Language : Hebrew
Default : No
Forced : No

Text #10
ID : 13
Format : UTF-8
Codec ID : S_TEXT/UTF8
Codec ID/Info : UTF-8 Plain Text
Duration : 22 min 12 s
Bit rate : 67 b/s
Frame rate : 0.259 FPS
Count of elements : 345
Stream size : 11.0 KiB (0%)
Title : 印尼語
Writing library : Lavc60.3.100 srt
Language : Indonesian
Default : No
Forced : No

Text #11
ID : 14
Format : UTF-8
Codec ID : S_TEXT/UTF8
Codec ID/Info : UTF-8 Plain Text
Duration : 21 min 51 s
Bit rate : 76 b/s
Frame rate : 0.249 FPS
Count of elements : 326
Stream size : 12.2 KiB (0%)
Title : 義大利文
Writing library : Lavc60.3.100 srt
Language : Italian
Default : No
Forced : No

Text #12
ID : 15
Format : UTF-8
Codec ID : S_TEXT/UTF8
Codec ID/Info : UTF-8 Plain Text
Duration : 23 min 37 s
Bit rate : 86 b/s
Frame rate : 0.277 FPS
Count of elements : 392
Stream size : 15.0 KiB (0%)
Title : 日文 [CC]
Writing library : Lavc60.3.100 srt
Language : Japanese
Default : No
Forced : No

Text #13
ID : 16
Format : UTF-8
Codec ID : S_TEXT/UTF8
Codec ID/Info : UTF-8 Plain Text
Duration : 22 min 12 s
Bit rate : 73 b/s
Frame rate : 0.258 FPS
Count of elements : 344
Stream size : 12.0 KiB (0%)
Title : 韓文
Writing library : Lavc60.3.100 srt
Language : Korean
Default : No
Forced : No

Text #14
ID : 17
Format : UTF-8
Codec ID : S_TEXT/UTF8
Codec ID/Info : UTF-8 Plain Text
Duration : 21 min 51 s
Bit rate : 74 b/s
Frame rate : 0.252 FPS
Count of elements : 331
Stream size : 11.9 KiB (0%)
Title : 馬來文
Writing library : Lavc60.3.100 srt
Language : Malay
Default : No
Forced : No

Text #15
ID : 18
Format : UTF-8
Codec ID : S_TEXT/UTF8
Codec ID/Info : UTF-8 Plain Text
Duration : 21 min 51 s
Bit rate : 67 b/s
Frame rate : 0.239 FPS
Count of elements : 313
Stream size : 10.8 KiB (0%)
Title : 荷蘭文
Writing library : Lavc60.3.100 srt
Language : Dutch
Default : No
Forced : No

Text #16
ID : 19
Format : UTF-8
Codec ID : S_TEXT/UTF8
Codec ID/Info : UTF-8 Plain Text
Duration : 21 min 51 s
Bit rate : 70 b/s
Frame rate : 0.253 FPS
Count of elements : 332
Stream size : 11.4 KiB (0%)
Title : 波蘭文
Writing library : Lavc60.3.100 srt
Language : Polish
Default : No
Forced : No

Text #17
ID : 20
Format : UTF-8
Codec ID : S_TEXT/UTF8
Codec ID/Info : UTF-8 Plain Text
Duration : 21 min 51 s
Bit rate : 73 b/s
Frame rate : 0.246 FPS
Count of elements : 323
Stream size : 11.7 KiB (0%)
Title : 葡萄牙語
Writing library : Lavc60.3.100 srt
Language : Portuguese
Default : No
Forced : No

Text #18
ID : 21
Format : UTF-8
Codec ID : S_TEXT/UTF8
Codec ID/Info : UTF-8 Plain Text
Duration : 22 min 12 s
Bit rate : 74 b/s
Frame rate : 0.257 FPS
Count of elements : 343
Stream size : 12.1 KiB (0%)
Title : 巴西葡萄牙語
Writing library : Lavc60.3.100 srt
Language : Portuguese
Default : No
Forced : No

Text #19
ID : 22
Format : UTF-8
Codec ID : S_TEXT/UTF8
Codec ID/Info : UTF-8 Plain Text
Duration : 21 min 51 s
Bit rate : 71 b/s
Frame rate : 0.258 FPS
Count of elements : 339
Stream size : 11.5 KiB (0%)
Title : 羅馬尼亞文
Writing library : Lavc60.3.100 srt
Language : Romanian
Default : No
Forced : No

Text #20
ID : 23
Format : UTF-8
Codec ID : S_TEXT/UTF8
Codec ID/Info : UTF-8 Plain Text
Duration : 22 min 12 s
Bit rate : 163 b/s
Frame rate : 0.258 FPS
Count of elements : 344
Stream size : 26.6 KiB (0%)
Title : 泰文
Writing library : Lavc60.3.100 srt
Language : Thai
Default : No
Forced : No

Text #21
ID : 24
Format : UTF-8
Codec ID : S_TEXT/UTF8
Codec ID/Info : UTF-8 Plain Text
Duration : 22 min 12 s
Bit rate : 72 b/s
Frame rate : 0.251 FPS
Count of elements : 335
Stream size : 11.8 KiB (0%)
Title : 土耳其文
Writing library : Lavc60.3.100 srt
Language : Turkish
Default : No
Forced : No

Text #22
ID : 25
Format : UTF-8
Codec ID : S_TEXT/UTF8
Codec ID/Info : UTF-8 Plain Text
Duration : 22 min 12 s
Bit rate : 115 b/s
Frame rate : 0.257 FPS
Count of elements : 342
Stream size : 18.9 KiB (0%)
Title : 烏克蘭文
Writing library : Lavc60.3.100 srt
Language : Ukrainian
Default : No
Forced : No

Text #23
ID : 26
Format : UTF-8
Codec ID : S_TEXT/UTF8
Codec ID/Info : UTF-8 Plain Text
Duration : 22 min 12 s
Bit rate : 93 b/s
Frame rate : 0.239 FPS
Count of elements : 318
Stream size : 15.3 KiB (0%)
Title : 越南文
Writing library : Lavc60.3.100 srt
Language : Vietnamese
Default : No
Forced : No

Text #24
ID : 27
Format : UTF-8
Codec ID : S_TEXT/UTF8
Codec ID/Info : UTF-8 Plain Text
Duration : 22 min 12 s
Bit rate : 64 b/s
Frame rate : 0.258 FPS
Count of elements : 344
Stream size : 10.5 KiB (0%)
Title : 簡體中文
Writing library : Lavc60.3.100 srt
Language : Chinese
Default : Yes
Forced : No

Text #25
ID : 28
Format : UTF-8
Codec ID : S_TEXT/UTF8
Codec ID/Info : UTF-8 Plain Text
Duration : 22 min 12 s
Bit rate : 56 b/s
Frame rate : 0.260 FPS
Count of elements : 346
Stream size : 9.15 KiB (0%)
Title : 繁體中文
Writing library : Lavc60.3.100 srt
Language : Chinese
Default : No
Forced : No

部分资源为软字幕,移动端推荐播放器:MxPlayer,nPlayer,infuse ,其他播放器请自行尝试。

部分资源为软字幕,电脑端推荐播放器:PotPlayer,完美解码,KMPLAYER,其他播放器请自行尝试。


文章版权及转载声明:

作者:16ACG本文地址:https://16acg.com/info/6003.html发布于 2023-08-28
文章转载或复制请以超链接形式并注明出处16次元导航

赞(0

觉得文章有用就打赏一下文章作者

支付宝扫一扫打赏

微信扫一扫打赏